The Dark Tower 2017 BRRip AAC x264-MiniMe

The Dark Tower 2017 BRRip AAC x264-MiniMe Torrent
Size: 400.5 MB
Language: English
Uploader: MrStark

Download The Dark Tower 2017 BRRip AAC x264-MiniMe Torrent torrent video for PC, tablet, MAC, IPhone or Android device.
The Dark Tower 2017 BRRip AAC x264-MiniMe Torrent For Torrent download Link. Scroll down!.


MOVIE TRAILER BELLOW.








Summary : The last Gunslinger, Roland Deschain, has been locked in an eternal battle with Walter O'Dim, also known as the Man in Black, determined to prevent him from toppling the Dark Tower, which holds the universe together. With the fate of the worlds at stake, good and evil will collide in the ultimate battle as only Roland can defend the Tower from the Man in Black.



Source : Evo (Thx)

IMDB : http://www.imdb.com/title/tt1648190/

Video Info
----------

Format : AVC
Format/Info : Advanced Video Codec
Format profile :
[email protected]
Format settings, CABAC : Yes
Format settings, ReFrames : 3 frames
Codec ID : avc1
Codec ID/Info : Advanced Video Coding
Duration : 1 h 27 min
Bit rate mode : Variable
Bit rate : 595 kb/s
Maximum bit rate : 40.0 Mb/s
Width : 720 pixels
Height : 304 pixels
Display aspect ratio : 2.35:1
Frame rate mode : Constant
Frame rate : 23.976 (24000/1001) FPS
Color space : YUV
Chroma subsampling : 4:2:0
Bit depth : 8 bits
Scan type : Progressive
Bits/(Pixel*Frame) : 0.113
Stream size : 373 MiB (93%)
Writing library : x264 core 152 r2851 ba24899

Audio Info
----------

Format : AAC
Format/Info : Advanced Audio Codec
Format profile : LC
Codec ID : 40
Duration : 1 h 27 min
Bit rate mode : Variable
Bit rate : 40.0 kb/s
Maximum bit rate : 52.1 kb/s
Channel(s) : 2 channels
Channel positions : Front: L R
Sampling rate : 48.0 kHz
Frame rate : 46.875 FPS (1024 spf)
Compression mode : Lossy
Stream size : 25.1 MiB (6%)




Click on thumbnails to view full size images



Thanks to the original encoder and uploader



The Dark Tower 2017 BRRip AAC x264-MiniMe Torrent




Hey Friend! Like us!